[ Сегодня идет свободное скачивание без начисления Download ]


Статистика раздачи
Нет
 
   
 
 
 
 
Charlie Parker - Chasin' The Bird (1940-e - 1950-e) 4CD, 2005, Proper Records -
Жанр: Bop
Издание: Proper Records - P 1493/1494/1495/1496
Продолжительность: 05:15:37
Кодек: FLAC (tracks+.cue)
Битрейт: Lossless
Страна-производитель диска: Czech Republic
Наличие сканов в содержимом раздачи: да
Треклист:

♦ CD1 - Bird Takes Off

Трeклист:

01. Cherokee [02:51]
02. I'm Forever Blowing Bubbles [04:00]
03. Sweet Georgia Brown [07:44]
04. Groovin' High [05:43]
05. Shaw'nuff [04:18]
06. Dizzy Atmosphere [04:26]
07. Salt Peanuts [02:07]
08. Anthropology [02:56]
09. Billie's Bounce [03:47]
10. Blue 'N' Boogie [05:06]
11. All The Things You Are [05:11]
12. Ornithology [04:59]
13. A Night In Tunisia [05:09]
14. Dizzy Atmosphere [04:04]
15. Groovin' High [05:16]
16. Confirmation [05:41]
17. Ko Ko [04:09]
Продолжительность:
01:17:17

Лог создания рипа:

Exact Audio Copy V0.99 prebeta 5 from 4. May 2009
EAC extraction logfile from 8. June 2012, 19:44
Charlie Parker / Chasin' The Bird - Disc 1 (Bird Takes Off
Used drive : TSSTcorpCDDVDW TS-L633C Adapter: 2 ID: 0
Read mode : Secure
Utilize accurate stream : Yes
Defeat audio cache : Yes
Make use of C2 pointers : No
Read offset correction : 6
Overread into Lead-In and Lead-Out : No
Fill up missing offset samples with silence : Yes
Delete leading and trailing silent blocks : No
Null samples used in CRC calculations : Yes
Used interface : Installed external ASPI interface
Gap handling : Appended to previous track
Used output format : User Defined Encoder
Selected bitrate : 768 kBit/s
Quality : High
Add ID3 tag : No
Command line compressor : C:\Program Files\Exact Audio Copy\FLAC\FLAC.EXE
Additional command line options : -6 -V -T "ARTIST=%a" -T "TITLE=%t" -T "ALBUM=%g" -T "DATE=%y" -T "TRACKNUMBER=%n" -T "GENRE=%m" -T "COMMENT=%e" %s -o %d
TOC of the extracted CD
Track | Start | Length | Start sector | End sector
---------------------------------------------------------
1 | 0:00.00 | 2:50.21 | 0 | 12770
2 | 2:50.21 | 3:59.20 | 12771 | 30715
3 | 6:49.41 | 7:43.17 | 30716 | 65457
4 | 14:32.58 | 5:42.35 | 65458 | 91142
5 | 20:15.18 | 4:17.12 | 91143 | 110429
6 | 24:32.30 | 4:25.05 | 110430 | 130309
7 | 28:57.35 | 2:06.35 | 130310 | 139794
8 | 31:03.70 | 2:55.18 | 139795 | 152937
9 | 33:59.13 | 3:46.33 | 152938 | 169920
10 | 37:45.46 | 5:05.54 | 169921 | 192849
11 | 42:51.25 | 5:10.62 | 192850 | 216161
12 | 48:02.12 | 4:58.38 | 216162 | 238549
13 | 53:00.50 | 5:08.44 | 238550 | 261693
14 | 58:09.19 | 4:03.23 | 261694 | 279941
15 | 62:12.42 | 5:15.37 | 279942 | 303603
16 | 67:28.04 | 5:40.14 | 303604 | 329117
17 | 73:08.18 | 4:08.52 | 329118 | 347769
Track 1
Filename C:\ista\Charlie Parker\Chasin' The Bird - Disc 1 (Bird Takes Off\01-Cherokee.wav
Pre-gap length 0:00:02.00
Peak level 84.0 %
Track quality 100.0 %
Test CRC C9032F10
Copy CRC C9032F10
Cannot be verified as accurate (confidence 4) [EC4C9DA2], AccurateRip returned [7E085BE4]
Copy OK
Track 2
Filename C:\ista\Charlie Parker\Chasin' The Bird - Disc 1 (Bird Takes Off\02-I'm Forever Blowing Bubbles.wav
Pre-gap length 0:00:02.40
Peak level 94.3 %
Track quality 100.0 %
Test CRC E7217FEB
Copy CRC E7217FEB
Cannot be verified as accurate (confidence 4) [ED116602], AccurateRip returned [92ECC7B8]
Copy OK
Track 3
Filename C:\ista\Charlie Parker\Chasin' The Bird - Disc 1 (Bird Takes Off\03-Sweet Georgia Brown.wav
Pre-gap length 0:00:02.41
Peak level 94.3 %
Track quality 99.9 %
Test CRC 807AB1EA
Copy CRC 807AB1EA
Cannot be verified as accurate (confidence 4) [6C3BED99], AccurateRip returned [EDC5A20B]
Copy OK
Track 4
Filename C:\ista\Charlie Parker\Chasin' The Bird - Disc 1 (Bird Takes Off\04-Groovin' High.wav
Pre-gap length 0:00:02.41
Peak level 80.5 %
Track quality 100.0 %
Test CRC 4FDA3190
Copy CRC 4FDA3190
Cannot be verified as accurate (confidence 4) [5ACACDB6], AccurateRip returned [79B68206]
Copy OK
Track 5
Filename C:\ista\Charlie Parker\Chasin' The Bird - Disc 1 (Bird Takes Off\05-Shaw'nuff.wav
Pre-gap length 0:00:02.41
Peak level 94.3 %
Track quality 100.0 %
Test CRC B4869DAE
Copy CRC B4869DAE
Cannot be verified as accurate (confidence 4) [26417898], AccurateRip returned [13500100]
Copy OK
Track 6
Filename C:\ista\Charlie Parker\Chasin' The Bird - Disc 1 (Bird Takes Off\06-Dizzy Atmosphere.wav
Pre-gap length 0:00:02.41
Peak level 86.0 %
Track quality 100.0 %
Test CRC 8F6D9386
Copy CRC 8F6D9386
Cannot be verified as accurate (confidence 4) [7B119B1A], AccurateRip returned [D3245298]
Copy OK
Track 7
Filename C:\ista\Charlie Parker\Chasin' The Bird - Disc 1 (Bird Takes Off\07-Salt Peanuts.wav
Pre-gap length 0:00:02.41
Peak level 94.3 %
Track quality 100.0 %
Test CRC 0AE9D49F
Copy CRC 0AE9D49F
Cannot be verified as accurate (confidence 4) [E4F9644A], AccurateRip returned [2ED4D3C2]
Copy OK
Track 8
Filename C:\ista\Charlie Parker\Chasin' The Bird - Disc 1 (Bird Takes Off\08-Anthropology.wav
Pre-gap length 0:00:02.41
Peak level 83.7 %
Track quality 100.0 %
Test CRC 84C67E27
Copy CRC 84C67E27
Cannot be verified as accurate (confidence 4) [836A505A], AccurateRip returned [8F479FC4]
Copy OK
Track 9
Filename C:\ista\Charlie Parker\Chasin' The Bird - Disc 1 (Bird Takes Off\09-Billie's Bounce.wav
Pre-gap length 0:00:02.41
Peak level 84.0 %
Track quality 99.9 %
Test CRC 81934D03
Copy CRC 81934D03
Cannot be verified as accurate (confidence 4) [EB9ADB0B], AccurateRip returned [B5F973DD]
Copy OK
Track 10
Filename C:\ista\Charlie Parker\Chasin' The Bird - Disc 1 (Bird Takes Off\10-Blue 'N' Boogie.wav
Pre-gap length 0:00:02.41
Peak level 84.0 %
Track quality 100.0 %
Test CRC 631C4E3E
Copy CRC 631C4E3E
Cannot be verified as accurate (confidence 4) [AE5D8C15], AccurateRip returned [57F4B3F7]
Copy OK
Track 11
Filename C:\ista\Charlie Parker\Chasin' The Bird - Disc 1 (Bird Takes Off\11-All The Things You Are.wav
Pre-gap length 0:00:02.41
Peak level 84.0 %
Track quality 99.9 %
Test CRC ACEC48CD
Copy CRC ACEC48CD
Cannot be verified as accurate (confidence 4) [30F098E8], AccurateRip returned [888803E0]
Copy OK
Track 12
Filename C:\ista\Charlie Parker\Chasin' The Bird - Disc 1 (Bird Takes Off\12-Ornithology.wav
Pre-gap length 0:00:02.41
Peak level 74.9 %
Track quality 99.9 %
Test CRC 5121051C
Copy CRC 5121051C
Cannot be verified as accurate (confidence 4) [51C20267], AccurateRip returned [C7EAC20B]
Copy OK
Track 13
Filename C:\ista\Charlie Parker\Chasin' The Bird - Disc 1 (Bird Takes Off\13-A Night In Tunisia.wav
Pre-gap length 0:00:02.41
Peak level 84.1 %
Track quality 100.0 %
Test CRC 4334A44C
Copy CRC 4334A44C
Cannot be verified as accurate (confidence 4) [ED9F6653], AccurateRip returned [C688E0AD]
Copy OK
Track 14
Filename C:\ista\Charlie Parker\Chasin' The Bird - Disc 1 (Bird Takes Off\14-Dizzy Atmosphere.wav
Pre-gap length 0:00:02.41
Peak level 89.9 %
Track quality 100.0 %
Test CRC B0EF8FA5
Copy CRC B0EF8FA5
Cannot be verified as accurate (confidence 4) [D8B3DDED], AccurateRip returned [4283831B]
Copy OK
Track 15
Filename C:\ista\Charlie Parker\Chasin' The Bird - Disc 1 (Bird Takes Off\15-Groovin' High.wav
Pre-gap length 0:00:02.41
Peak level 91.3 %
Track quality 100.0 %
Test CRC 559E3EED
Copy CRC 559E3EED
Cannot be verified as accurate (confidence 4) [1A9D9335], AccurateRip returned [CF88E491]
Copy OK
Track 16
Filename C:\ista\Charlie Parker\Chasin' The Bird - Disc 1 (Bird Takes Off\16-Confirmation.wav
Pre-gap length 0:00:02.41
Peak level 94.2 %
Track quality 100.0 %
Test CRC 3865723D
Copy CRC 3865723D
Cannot be verified as accurate (confidence 4) [E909EA59], AccurateRip returned [33AADC9F]
Copy OK
Track 17
Filename C:\ista\Charlie Parker\Chasin' The Bird - Disc 1 (Bird Takes Off\17-Ko Ko.wav
Pre-gap length 0:00:02.41
Peak level 94.2 %
Track quality 100.0 %
Test CRC 93430282
Copy CRC 93430282
Cannot be verified as accurate (confidence 4) [DE0522AA], AccurateRip returned [30DF774E]
Copy OK
No tracks could be verified as accurate
You may have a different pressing from the one(s) in the database
No errors occurred
End of status report

Содержание индексной карты (.CUE)

REM GENRE Jazz
REM DATE 2005
REM DISCID F0121C11
REM COMMENT "ExactAudioCopy v0.99pb5"
PERFORMER "Charlie Parker"
TITLE "Chasin' The Bird - Disc 1 (Bird Takes Off"
FILE "01-Cherokee.wav" WAVE
TRACK 01 AUDIO
TITLE "Cherokee"
PERFORMER "Charlie Parker"
INDEX 01 00:00:00
TRACK 02 AUDIO
TITLE "I'm Forever Blowing Bubbles"
PERFORMER "Charlie Parker"
INDEX 00 02:47:56
FILE "02-I'm Forever Blowing Bubbles.wav" WAVE
INDEX 01 00:00:00
TRACK 03 AUDIO
TITLE "Sweet Georgia Brown"
PERFORMER "Charlie Parker"
INDEX 00 03:56:54
FILE "03-Sweet Georgia Brown.wav" WAVE
INDEX 01 00:00:00
TRACK 04 AUDIO
TITLE "Groovin' High"
PERFORMER "Charlie Parker"
INDEX 00 07:40:51
FILE "04-Groovin' High.wav" WAVE
INDEX 01 00:00:00
TRACK 05 AUDIO
TITLE "Shaw'nuff"
PERFORMER "Charlie Parker"
INDEX 00 05:39:69
FILE "05-Shaw'nuff.wav" WAVE
INDEX 01 00:00:00
TRACK 06 AUDIO
TITLE "Dizzy Atmosphere"
PERFORMER "Charlie Parker"
INDEX 00 04:14:46
FILE "06-Dizzy Atmosphere.wav" WAVE
INDEX 01 00:00:00
TRACK 07 AUDIO
TITLE "Salt Peanuts"
PERFORMER "Charlie Parker"
INDEX 00 04:22:39
FILE "07-Salt Peanuts.wav" WAVE
INDEX 01 00:00:00
TRACK 08 AUDIO
TITLE "Anthropology"
PERFORMER "Charlie Parker"
INDEX 00 02:03:69
FILE "08-Anthropology.wav" WAVE
INDEX 01 00:00:00
TRACK 09 AUDIO
TITLE "Billie's Bounce"
PERFORMER "Charlie Parker"
INDEX 00 02:52:52
FILE "09-Billie's Bounce.wav" WAVE
INDEX 01 00:00:00
TRACK 10 AUDIO
TITLE "Blue 'N' Boogie"
PERFORMER "Charlie Parker"
INDEX 00 03:43:67
FILE "10-Blue 'N' Boogie.wav" WAVE
INDEX 01 00:00:00
TRACK 11 AUDIO
TITLE "All The Things You Are"
PERFORMER "Charlie Parker"
INDEX 00 05:03:13
FILE "11-All The Things You Are.wav" WAVE
INDEX 01 00:00:00
TRACK 12 AUDIO
TITLE "Ornithology"
PERFORMER "Charlie Parker"
INDEX 00 05:08:21
FILE "12-Ornithology.wav" WAVE
INDEX 01 00:00:00
TRACK 13 AUDIO
TITLE "A Night In Tunisia"
PERFORMER "Charlie Parker"
INDEX 00 04:55:72
FILE "13-A Night In Tunisia.wav" WAVE
INDEX 01 00:00:00
TRACK 14 AUDIO
TITLE "Dizzy Atmosphere"
PERFORMER "Charlie Parker"
INDEX 00 05:06:03
FILE "14-Dizzy Atmosphere.wav" WAVE
INDEX 01 00:00:00
TRACK 15 AUDIO
TITLE "Groovin' High"
PERFORMER "Charlie Parker"
INDEX 00 04:00:57
FILE "15-Groovin' High.wav" WAVE
INDEX 01 00:00:00
TRACK 16 AUDIO
TITLE "Confirmation"
PERFORMER "Charlie Parker"
INDEX 00 05:12:71
FILE "16-Confirmation.wav" WAVE
INDEX 01 00:00:00
TRACK 17 AUDIO
TITLE "Ko Ko"
PERFORMER "Charlie Parker"
INDEX 00 05:37:48
FILE "17-Ko Ko.wav" WAVE
INDEX 01 00:00:00

Отчёт auCDtect Task manager

-----------------------
DON'T MODIFY THIS FILE
-----------------------
PERFORMER: auCDtect Task Manager, ver. 1.6.0 RC1 build 1.6.0.1
Copyright (c) 2008-2010 y-soft. All rights reserved
http://y-soft.org
ANALYZER: auCDtect: CD records authenticity detector, version 0.8.2
Copyright (c) 2004 Oleg Berngardt. All rights reserved.
Copyright (c) 2004 Alexander Djourik. All rights reserved.
FILE: 17-Ko Ko.flac
Size: 10215761 Hash: 118B58FC28763934757FA2A4B25F4FF7 Accuracy: -m0
Conclusion: CDDA 86%
Signature: 654F6F2709CFEF87E32F1C8B765BF41390792490
FILE: 16-Confirmation.flac
Size: 13345825 Hash: 538A30F7ADAB2688411412AA7061EF1A Accuracy: -m0
Conclusion: CDDA 99%
Signature: 3437E31978A41BC9FA9A6D3D2FE54E4281D1F9DB
FILE: 15-Groovin' High.flac
Size: 12571737 Hash: 357B2E2E1BCDCC54E4BDC5FC493DA147 Accuracy: -m0
Conclusion: CDDA 100%
Signature: FE87907F3A7ABFC14AD24A23728EDA522F0930C2
FILE: 14-Dizzy Atmosphere.flac
Size: 9659972 Hash: 74D118933FCDD1808415121DDCDBC512 Accuracy: -m0
Conclusion: CDDA 100%
Signature: 44D8581E6CC60ED3D3A691A60EBE920668C07921
FILE: 13-A Night In Tunisia.flac
Size: 12060141 Hash: DAEBFCD24AA1ED91895BE344FDECB627 Accuracy: -m0
Conclusion: CDDA 85%
Signature: 31F9A1A4F7BD8EADCCDE63CACA9F95BA8F396BC6
FILE: 12-Ornithology.flac
Size: 9285952 Hash: F18C9459210BDB5298FE230DEBDAEEB7 Accuracy: -m0
Conclusion: MPEG 80%
Signature: 21CB705200A806466D76EBF0558ED1AFBBD76662
FILE: 11-All The Things You Are.flac
Size: 8860966 Hash: F565CF7553CAD5C4448E53BBC57C32E8 Accuracy: -m0
Conclusion: MPEG 89%
Signature: 9FDB738D9D8E1621FA7C2957EA2419846C9CD87B
FILE: 10-Blue 'N' Boogie.flac
Size: 9402554 Hash: 3941BDDED342D1AF343EEDFEB726BD26 Accuracy: -m0
Conclusion: CDDA 43%
Signature: 94000725E4A68BC5A9ABC094A06710749D35BA06
FILE: 09-Billie's Bounce.flac
Size: 6934269 Hash: B65E8ED8E0242D382F21609A6047BD1B Accuracy: -m0
Conclusion: MPEG 100%
Signature: 09236502BE0706D0B3D8B0BBC414BA2060F12E95
FILE: 08-Anthropology.flac
Size: 5473452 Hash: 87ECF95B62CDEC5E5C2864799EC03B60 Accuracy: -m0
Conclusion: CDDA 42%
Signature: FA832E7544EAB7D69B6AB6DA46404DDAAC5EE6F6
FILE: 07-Salt Peanuts.flac
Size: 3968758 Hash: DEF6180E9F04452F3C4B9C94BA92D2B7 Accuracy: -m0
Conclusion: CDDA 92%
Signature: 187AB51874906BF876BA820C75EE3B6FE7A6DD7C
FILE: 06-Dizzy Atmosphere.flac
Size: 11177807 Hash: 58709DE1A9CAB7314490EEB2B01CAD13 Accuracy: -m0
Conclusion: CDDA 99%
Signature: 49B27BA0C26ED1D86B3F660280A36E342A01988F
FILE: 05-Shaw'nuff.flac
Size: 11509052 Hash: 81A67857E039783F54F3DE564B1FE6F8 Accuracy: -m0
Conclusion: CDDA 100%
Signature: B6344B64545B1AB0A424CB2D67EA71321216DC97
FILE: 04-Groovin' High.flac
Size: 14732397 Hash: 9BF80CC652BBA2A049D1EE21E9DB0C42 Accuracy: -m0
Conclusion: CDDA 100%
Signature: 8B490956C239A048E21AD0935F9947BC0DF74CB7
FILE: 03-Sweet Georgia Brown.flac
Size: 14939960 Hash: D360570A50028A60D55E60944A4DF07A Accuracy: -m0
Conclusion: CDDA 100%
Signature: EEFB2B40790741AD720192EB816E5A22F9F7FB8C
FILE: 02-I'm Forever Blowing Bubbles.flac
Size: 8274413 Hash: 9EEBC083B01A1CC307FA6655C6FE662A Accuracy: -m0
Conclusion: MPEG 91%
Signature: 3853D3C57F05E8294DE42BD4309BD63B077CE71D
FILE: 01-Cherokee.flac
Size: 4486754 Hash: E666790661B7010B86F88464E7AACC9E Accuracy: -m0
Conclusion: CDDA 99%
Signature: 92BBE9BBDC464F3246CC843B9E767F666A366C27

Спектрограмма:

♦ CD2 - Bird At The Roost

Трeклист:

01. 52nd Street Theme [05:11]
02. Ko Ko [02:36]
03. Groovin' High [04:56]
04. Big Foot [04:48]
05. Ornithology [05:44]
06. Slow Boat To China [05:12]
07. Hot House [04:29]
08. Salt Peanuts [03:54]
09. Chasin' the Bird [04:27]
10. Out Of Nowhere [03:23]
11. Half Nelson [04:35]
12. White Christmas [04:57]
13. Little Willie Leaps [03:45]
14. Bebop [03:53]
15. East Of The Sun [04:45]
16. Cheryl [04:24]
17. Scrapple From The Apple [04:15]
18. Barbados [03:54]
Продолжительность:
01:19:01

Лог создания рипаt

Exact Audio Copy V0.99 prebeta 5 from 4. May 2009
EAC extraction logfile from 8. June 2012, 22:33
Charlie Parker / Chasin' The Bird - Disc 2 (Bird At The Roost)
Used drive : TSSTcorpCDDVDW TS-L633C Adapter: 2 ID: 0
Read mode : Secure
Utilize accurate stream : Yes
Defeat audio cache : Yes
Make use of C2 pointers : No
Read offset correction : 6
Overread into Lead-In and Lead-Out : No
Fill up missing offset samples with silence : Yes
Delete leading and trailing silent blocks : No
Null samples used in CRC calculations : Yes
Used interface : Installed external ASPI interface
Gap handling : Appended to previous track
Used output format : User Defined Encoder
Selected bitrate : 768 kBit/s
Quality : High
Add ID3 tag : No
Command line compressor : C:\Program Files\Exact Audio Copy\FLAC\FLAC.EXE
Additional command line options : -6 -V -T "ARTIST=%a" -T "TITLE=%t" -T "ALBUM=%g" -T "DATE=%y" -T "TRACKNUMBER=%n" -T "GENRE=%m" -T "COMMENT=%e" %s -o %d
TOC of the extracted CD
Track | Start | Length | Start sector | End sector
---------------------------------------------------------
1 | 0:00.00 | 5:10.04 | 0 | 23253
2 | 5:10.04 | 2:35.46 | 23254 | 34924
3 | 7:45.50 | 4:55.49 | 34925 | 57098
4 | 12:41.24 | 4:47.14 | 57099 | 78637
5 | 17:28.38 | 5:43.07 | 78638 | 104369
6 | 23:11.45 | 5:11.35 | 104370 | 127729
7 | 28:23.05 | 4:28.30 | 127730 | 147859
8 | 32:51.35 | 3:53.64 | 147860 | 165398
9 | 36:45.24 | 4:26.73 | 165399 | 185421
10 | 41:12.22 | 3:22.71 | 185422 | 200642
11 | 44:35.18 | 4:34.66 | 200643 | 221258
12 | 49:10.09 | 4:56.43 | 221259 | 243501
13 | 54:06.52 | 3:44.72 | 243502 | 260373
14 | 57:51.49 | 3:52.43 | 260374 | 277816
15 | 61:44.17 | 4:44.26 | 277817 | 299142
16 | 66:28.43 | 4:23.68 | 299143 | 318935
17 | 70:52.36 | 4:14.05 | 318936 | 337990
18 | 75:06.41 | 3:53.49 | 337991 | 355514
Track 1
Filename C:\ista\Charlie Parker\Chasin' The Bird - Disc 2 (Bird At The Roost)\01-52nd Street Theme.wav
Pre-gap length 0:00:02.00
Peak level 94.2 %
Track quality 100.0 %
Test CRC D9E57B56
Copy CRC D9E57B56
Cannot be verified as accurate (confidence 4) [770A7848], AccurateRip returned [91E92AAC]
Copy OK
Track 2
Filename C:\ista\Charlie Parker\Chasin' The Bird - Disc 2 (Bird At The Roost)\02-Ko Ko.wav
Pre-gap length 0:00:02.41
Peak level 88.9 %
Track quality 100.0 %
Test CRC A46C539C
Copy CRC A46C539C
Cannot be verified as accurate (confidence 4) [82F08473], AccurateRip returned [77CEE431]
Copy OK
Track 3
Filename C:\ista\Charlie Parker\Chasin' The Bird - Disc 2 (Bird At The Roost)\03-Groovin' High.wav
Pre-gap length 0:00:02.41
Peak level 94.3 %
Track quality 100.0 %
Test CRC FD4D867E
Copy CRC FD4D867E
Cannot be verified as accurate (confidence 4) [0CEF08CE], AccurateRip returned [8790BC5E]
Copy OK
Track 4
Filename C:\ista\Charlie Parker\Chasin' The Bird - Disc 2 (Bird At The Roost)\04-Big Foot.wav
Pre-gap length 0:00:02.41
Peak level 94.3 %
Track quality 100.0 %
Test CRC 85ECBBE3
Copy CRC 85ECBBE3
Cannot be verified as accurate (confidence 4) [35A40DE3], AccurateRip returned [144FFCA5]
Copy OK
Track 5
Filename C:\ista\Charlie Parker\Chasin' The Bird - Disc 2 (Bird At The Roost)\05-Ornithology.wav
Pre-gap length 0:00:02.41
Peak level 94.3 %
Track quality 100.0 %
Test CRC 292C1444
Copy CRC 292C1444
Cannot be verified as accurate (confidence 4) [13CDE74E], AccurateRip returned [888F291C]
Copy OK
Track 6
Filename C:\ista\Charlie Parker\Chasin' The Bird - Disc 2 (Bird At The Roost)\06-Slow Boat To China.wav
Pre-gap length 0:00:02.41
Peak level 94.3 %
Track quality 99.9 %
Test CRC 4BEA43CB
Copy CRC 4BEA43CB
Cannot be verified as accurate (confidence 4) [6DFF4603], AccurateRip returned [6AFF67E7]
Copy OK
Track 7
Filename C:\ista\Charlie Parker\Chasin' The Bird - Disc 2 (Bird At The Roost)\07-Hot House.wav
Pre-gap length 0:00:02.41
Peak level 94.3 %
Track quality 100.0 %
Test CRC 7756B748
Copy CRC 7756B748
Cannot be verified as accurate (confidence 4) [A9D9FE85], AccurateRip returned [27DB4BDF]
Copy OK
Track 8
Filename C:\ista\Charlie Parker\Chasin' The Bird - Disc 2 (Bird At The Roost)\08-Salt Peanuts.wav
Pre-gap length 0:00:02.41
Peak level 94.3 %
Track quality 100.0 %
Test CRC 3A12E142
Copy CRC 3A12E142
Cannot be verified as accurate (confidence 4) [389685E3], AccurateRip returned [3026BFE5]
Copy OK
Track 9
Filename C:\ista\Charlie Parker\Chasin' The Bird - Disc 2 (Bird At The Roost)\09-Chasin' the Bird.wav
Pre-gap length 0:00:02.41
Peak level 94.1 %
Track quality 99.9 %
Test CRC 7A8C8F32
Copy CRC 7A8C8F32
Cannot be verified as accurate (confidence 4) [CA976CF7], AccurateRip returned [2B531B19]
Copy OK
Track 10
Filename C:\ista\Charlie Parker\Chasin' The Bird - Disc 2 (Bird At The Roost)\10-Out Of Nowhere.wav
Pre-gap length 0:00:02.41
Peak level 94.2 %
Track quality 100.0 %
Test CRC 682A362C
Copy CRC 682A362C
Cannot be verified as accurate (confidence 4) [E9656FF7], AccurateRip returned [A4FFA61B]
Copy OK
Track 11
Filename C:\ista\Charlie Parker\Chasin' The Bird - Disc 2 (Bird At The Roost)\11-Half Nelson.wav
Pre-gap length 0:00:02.41
Peak level 94.2 %
Track quality 100.0 %
Test CRC A7E2FC23
Copy CRC A7E2FC23
Cannot be verified as accurate (confidence 4) [48078E95], AccurateRip returned [9FEA2B03]
Copy OK
Track 12
Filename C:\ista\Charlie Parker\Chasin' The Bird - Disc 2 (Bird At The Roost)\12-White Christmas.wav
Pre-gap length 0:00:02.41
Peak level 92.4 %
Track quality 100.0 %
Test CRC A98515D8
Copy CRC A98515D8
Cannot be verified as accurate (confidence 4) [5F1F5C17], AccurateRip returned [764CDDA9]
Copy OK
Track 13
Filename C:\ista\Charlie Parker\Chasin' The Bird - Disc 2 (Bird At The Roost)\13-Little Willie Leaps.wav
Pre-gap length 0:00:02.41
Peak level 94.2 %
Track quality 100.0 %
Test CRC AAC08EF8
Copy CRC AAC08EF8
Cannot be verified as accurate (confidence 4) [C0FCB2B8], AccurateRip returned [CE6027AC]
Copy OK
Track 14
Filename C:\ista\Charlie Parker\Chasin' The Bird - Disc 2 (Bird At The Roost)\14-Bebop.wav
Pre-gap length 0:00:02.41
Peak level 94.3 %
Track quality 100.0 %
Test CRC 054FF8D4
Copy CRC 054FF8D4
Cannot be verified as accurate (confidence 4) [942C3843], AccurateRip returned [32458CB5]
Copy OK
Track 15
Filename C:\ista\Charlie Parker\Chasin' The Bird - Disc 2 (Bird At The Roost)\15-East Of The Sun.wav
Pre-gap length 0:00:02.41
Peak level 94.3 %
Track quality 100.0 %
Test CRC 790CBF3E
Copy CRC 790CBF3E
Cannot be verified as accurate (confidence 4) [8EA226A0], AccurateRip returned [DBD5779E]
Copy OK
Track 16
Filename C:\ista\Charlie Parker\Chasin' The Bird - Disc 2 (Bird At The Roost)\16-Cheryl.wav
Pre-gap length 0:00:02.41
Peak level 94.2 %
Track quality 100.0 %
Test CRC 219C189B
Copy CRC 219C189B
Cannot be verified as accurate (confidence 4) [14AED773], AccurateRip returned [6C171F13]
Copy OK
Track 17
Filename C:\ista\Charlie Parker\Chasin' The Bird - Disc 2 (Bird At The Roost)\17-Scrapple From The Apple.wav
Pre-gap length 0:00:02.41
Peak level 94.1 %
Track quality 100.0 %
Test CRC 887366D5
Copy CRC 887366D5
Cannot be verified as accurate (confidence 4) [A43054FE], AccurateRip returned [8B5BBC6C]
Copy OK
Track 18
Filename C:\ista\Charlie Parker\Chasin' The Bird - Disc 2 (Bird At The Roost)\18-Barbados.wav
Pre-gap length 0:00:02.41
Peak level 94.2 %
Track quality 100.0 %
Test CRC 0C0A1BB9
Copy CRC 0C0A1BB9
Cannot be verified as accurate (confidence 4) [43006E1E], AccurateRip returned [78FE81FE]
Copy OK
No tracks could be verified as accurate
You may have a different pressing from the one(s) in the database
No errors occurred
End of status report

Содержание индексной карты (.CUE)

REM GENRE Jazz
REM DATE 2005
REM DISCID 0C128412
REM COMMENT "ExactAudioCopy v0.99pb5"
PERFORMER "Charlie Parker"
TITLE "Chasin' The Bird - Disc 2 (Bird At The Roost)"
FILE "01-52nd Street Theme.wav" WAVE
TRACK 01 AUDIO
TITLE "52nd Street Theme"
PERFORMER "Charlie Parker"
INDEX 01 00:00:00
TRACK 02 AUDIO
TITLE "Ko Ko"
PERFORMER "Charlie Parker"
INDEX 00 05:07:38
FILE "02-Ko Ko.wav" WAVE
INDEX 01 00:00:00
TRACK 03 AUDIO
TITLE "Groovin' High"
PERFORMER "Charlie Parker"
INDEX 00 02:33:05
FILE "03-Groovin' High.wav" WAVE
INDEX 01 00:00:00
TRACK 04 AUDIO
TITLE "Big Foot"
PERFORMER "Charlie Parker"
INDEX 00 04:53:08
FILE "04-Big Foot.wav" WAVE
INDEX 01 00:00:00
TRACK 05 AUDIO
TITLE "Ornithology"
PERFORMER "Charlie Parker"
INDEX 00 04:44:48
FILE "05-Ornithology.wav" WAVE
INDEX 01 00:00:00
TRACK 06 AUDIO
TITLE "Slow Boat To China"
PERFORMER "Charlie Parker"
INDEX 00 05:40:41
FILE "06-Slow Boat To China.wav" WAVE
INDEX 01 00:00:00
TRACK 07 AUDIO
TITLE "Hot House"
PERFORMER "Charlie Parker"
INDEX 00 05:08:69
FILE "07-Hot House.wav" WAVE
INDEX 01 00:00:00
TRACK 08 AUDIO
TITLE "Salt Peanuts"
PERFORMER "Charlie Parker"
INDEX 00 04:25:64
FILE "08-Salt Peanuts.wav" WAVE
INDEX 01 00:00:00
TRACK 09 AUDIO
TITLE "Chasin' the Bird"
PERFORMER "Charlie Parker"
INDEX 00 03:51:23
FILE "09-Chasin' the Bird.wav" WAVE
INDEX 01 00:00:00
TRACK 10 AUDIO
TITLE "Out Of Nowhere"
PERFORMER "Charlie Parker"
INDEX 00 04:24:32
FILE "10-Out Of Nowhere.wav" WAVE
INDEX 01 00:00:00
TRACK 11 AUDIO
TITLE "Half Nelson"
PERFORMER "Charlie Parker"
INDEX 00 03:20:30
FILE "11-Half Nelson.wav" WAVE
INDEX 01 00:00:00
TRACK 12 AUDIO
TITLE "White Christmas"
PERFORMER "Charlie Parker"
INDEX 00 04:32:25
FILE "12-White Christmas.wav" WAVE
INDEX 01 00:00:00
TRACK 13 AUDIO
TITLE "Little Willie Leaps"
PERFORMER "Charlie Parker"
INDEX 00 04:54:02
FILE "13-Little Willie Leaps.wav" WAVE
INDEX 01 00:00:00
TRACK 14 AUDIO
TITLE "Bebop"
PERFORMER "Charlie Parker"
INDEX 00 03:42:31
FILE "14-Bebop.wav" WAVE
INDEX 01 00:00:00
TRACK 15 AUDIO
TITLE "East Of The Sun"
PERFORMER "Charlie Parker"
INDEX 00 03:50:02
FILE "15-East Of The Sun.wav" WAVE
INDEX 01 00:00:00
TRACK 16 AUDIO
TITLE "Cheryl"
PERFORMER "Charlie Parker"
INDEX 00 04:41:60
FILE "16-Cheryl.wav" WAVE
INDEX 01 00:00:00
TRACK 17 AUDIO
TITLE "Scrapple From The Apple"
PERFORMER "Charlie Parker"
INDEX 00 04:21:27
FILE "17-Scrapple From The Apple.wav" WAVE
INDEX 01 00:00:00
TRACK 18 AUDIO
TITLE "Barbados"
PERFORMER "Charlie Parker"
INDEX 00 04:11:39
FILE "18-Barbados.wav" WAVE
INDEX 01 00:00:00

Отчёт auCDtect Task manager

-----------------------
DON'T MODIFY THIS FILE
-----------------------
PERFORMER: auCDtect Task Manager, ver. 1.6.0 RC1 build 1.6.0.1
Copyright (c) 2008-2010 y-soft. All rights reserved
http://y-soft.org
ANALYZER: auCDtect: CD records authenticity detector, version 0.8.2
Copyright (c) 2004 Oleg Berngardt. All rights reserved.
Copyright (c) 2004 Alexander Djourik. All rights reserved.
FILE: 18-Barbados.flac
Size: 7678961 Hash: 3B1F1B028AFDB0DD0DC3D5AFF836C085 Accuracy: -m0
Conclusion: CDDA 62%
Signature: 9CC3CF86700E411A40B4E5A0D7F0DF9DE98E6CAB
FILE: 17-Scrapple From The Apple.flac
Size: 8004723 Hash: 99AD20FC9D18A5AC1477158A13CC8BC5 Accuracy: -m0
Conclusion: CDDA 100%
Signature: E1B70535405EFA654A02758C977712833AE19C34
FILE: 16-Cheryl.flac
Size: 9346908 Hash: E60866B686F889F3B905B221BB3ABED5 Accuracy: -m0
Conclusion: CDDA 62%
Signature: 8A0F23057BFADAC47BC0BC970D6D8DF5F24EDEA4
FILE: 15-East Of The Sun.flac
Size: 9719608 Hash: AA4E91486102C3EC954A5325A5617A8D Accuracy: -m0
Conclusion: CDDA 54%
Signature: 84F58424D6C7D306167F7E5A25F3C397DB85B2E2
FILE: 14-Bebop.flac
Size: 8374480 Hash: F86D13DFFE713B38135C148E82C62166 Accuracy: -m0
Conclusion: CDDA 43%
Signature: 83F2A5239995E81D5388F141754D7BBC3BEBD5CF
FILE: 13-Little Willie Leaps.flac
Size: 8001778 Hash: E30F5BBE865E751FE0DC0F69B69FC2D3 Accuracy: -m0
Conclusion: CDDA 85%
Signature: 4BC93CDE30B29FEE55CEB1E8924EF69BF46A185B
FILE: 12-White Christmas.flac
Size: 10674655 Hash: 8C970BE97A93C86733CBC855F8116FD6 Accuracy: -m0
Conclusion: CDDA 100%
Signature: 8CD154777066B6E70891EBACF91F148DCA5F53A1
FILE: 11-Half Nelson.flac
Size: 9846387 Hash: 19000738F2E82A267081F96CC530F39F Accuracy: -m0
Conclusion: CDDA 100%
Signature: CCFF518689A0628CCBFE5FDEC760AA7DB496F5B4
FILE: 10-Out Of Nowhere.flac
Size: 6740393 Hash: 2AD6932EE4EF2B32B1830F89357D2C36 Accuracy: -m0
Conclusion: CDDA 42%
Signature: 05BF283C22CBCF470170E12E21607777B8090D62
FILE: 09-Chasin' the Bird.flac
Size: 9544907 Hash: ACF60D949B6CC27C9966E89E2A7F61E0 Accuracy: -m0
Conclusion: CDDA 54%
Signature: 6414CC45C940AC737E9E0235A001992CA430E95C
FILE: 08-Salt Peanuts.flac
Size: 8412654 Hash: 48C2AAD488B0F1370437456162E899BE Accuracy: -m0
Conclusion: CDDA 94%
Signature: C4DB4D6B0396B8C027A92E5484A669FD074CDE47
FILE: 07-Hot House.flac
Size: 9774671 Hash: 631B43FA681325D1D4F22239D7805077 Accuracy: -m0
Conclusion: CDDA 76%
Signature: 24F8F7B03E4ECDF9436149A3F7908FC8D128AF4F
FILE: 06-Slow Boat To China.flac
Size: 11736022 Hash: 8A60EDA1BE46D5A38DC122053EFAEB6E Accuracy: -m0
Conclusion: CDDA 86%
Signature: 5A46933932170BD850126E00B23C5074B71E525B
FILE: 05-Ornithology.flac
Size: 12143999 Hash: 038FFE1C747F3BE9EF0B288C4F49E43E Accuracy: -m0
Conclusion: CDDA 94%
Signature: E81597E990E4EB13E65F83661203E8B1DD24A59B
FILE: 04-Big Foot.flac
Size: 10286575 Hash: 2FADDDA4BDCF49CA207B467A85355CB4 Accuracy: -m0
Conclusion: CDDA 100%
Signature: FD7F99321A67BF398A4554C6798ED716D8EABA45
FILE: 03-Groovin' High.flac
Size: 10766331 Hash: F4AEDFAFAF27A18E7CAC954F80606942 Accuracy: -m0
Conclusion: CDDA 87%
Signature: 87BA729A85CCD2BB5E48CF2103311987500BA213
FILE: 02-Ko Ko.flac
Size: 5714804 Hash: 564B0B03F58D06CF7151B3DEC532DE76 Accuracy: -m0
Conclusion: CDDA 100%
Signature: E636CA46DE9DBA0F5931E7580E5CC4E8677B435F
FILE: 01-52nd Street Theme.flac
Size: 11512555 Hash: 0894A94EB360E4456528A91E61FD27A0 Accuracy: -m0
Conclusion: CDDA 100%
Signature: 3324D2F59C3AAB4FF098059D276604B4F7C7CFB1

♦ CD3 - Bird In Flight

Трeклист:

01. Wahoo [06:36]
02. 'Round Midnight [05:06]
03. This Time the Dream's On Me [06:20]
04. Dizzy Atmosphere [06:57]
05. Move [06:33]
06. The Street Beat [09:33]
07. Out Of Nowhere [06:22]
08. Little Willie Leaps/52nd Street Theme [05:47]
09. Ornithology [07:54]
10. I'll Remember April/52nd Street Theme [09:31]
11. Cool Blues/52nd Street Theme [09:08]
Продолжительность:
01:19:43

Лог создания рипа:

Exact Audio Copy V0.99 prebeta 5 from 4. May 2009
EAC extraction logfile from 9. June 2012, 19:11
Charlie Parker / Chasin' The Bird - Disc 3 (Bird In Flight)
Used drive : TSSTcorpCDDVDW TS-L633C Adapter: 2 ID: 0
Read mode : Secure
Utilize accurate stream : Yes
Defeat audio cache : Yes
Make use of C2 pointers : No
Read offset correction : 6
Overread into Lead-In and Lead-Out : No
Fill up missing offset samples with silence : Yes
Delete leading and trailing silent blocks : No
Null samples used in CRC calculations : Yes
Used interface : Installed external ASPI interface
Gap handling : Appended to previous track
Used output format : User Defined Encoder
Selected bitrate : 768 kBit/s
Quality : High
Add ID3 tag : No
Command line compressor : C:\Program Files\Exact Audio Copy\FLAC\FLAC.EXE
Additional command line options : -6 -V -T "ARTIST=%a" -T "TITLE=%t" -T "ALBUM=%g" -T "DATE=%y" -T "TRACKNUMBER=%n" -T "GENRE=%m" -T "COMMENT=%e" %s -o %d
TOC of the extracted CD
Track | Start | Length | Start sector | End sector
---------------------------------------------------------
1 | 0:00.00 | 6:35.74 | 0 | 29698
2 | 6:35.74 | 5:05.02 | 29699 | 52575
3 | 11:41.01 | 6:19.60 | 52576 | 81060
4 | 18:00.61 | 6:56.31 | 81061 | 112291
5 | 24:57.17 | 6:32.71 | 112292 | 141762
6 | 31:30.13 | 9:32.20 | 141763 | 184682
7 | 41:02.33 | 6:21.65 | 184683 | 213322
8 | 47:24.23 | 5:46.46 | 213323 | 239318
9 | 53:10.69 | 7:53.68 | 239319 | 274861
10 | 61:04.62 | 9:30.19 | 274862 | 317630
11 | 70:35.06 | 9:07.23 | 317631 | 358678
Track 1
Filename C:\ista\Charlie Parker\Chasin' The Bird - Disc 3 (Bird In Flight)\01-Wahoo.wav
Pre-gap length 0:00:02.00
Peak level 87.7 %
Track quality 100.0 %
Test CRC 5B59CB1D
Copy CRC 5B59CB1D
Cannot be verified as accurate (confidence 4) [83789379], AccurateRip returned [CD5B9715]
Copy OK
Track 2
Filename C:\ista\Charlie Parker\Chasin' The Bird - Disc 3 (Bird In Flight)\02-'Round Midnight.wav
Peak level 94.0 %
Track quality 100.0 %
Test CRC 50DD3844
Copy CRC 50DD3844
Cannot be verified as accurate (confidence 4) [7F4A723F], AccurateRip returned [F549ADFF]
Copy OK
Track 3
Filename C:\ista\Charlie Parker\Chasin' The Bird - Disc 3 (Bird In Flight)\03-This Time the Dream's On Me.wav
Peak level 94.3 %
Track quality 100.0 %
Test CRC C075717F
Copy CRC C075717F
Cannot be verified as accurate (confidence 4) [25A447ED], AccurateRip returned [294F797F]
Copy OK
Track 4
Filename C:\ista\Charlie Parker\Chasin' The Bird - Disc 3 (Bird In Flight)\04-Dizzy Atmosphere.wav
Peak level 93.4 %
Track quality 99.9 %
Test CRC B87515BC
Copy CRC B87515BC
Cannot be verified as accurate (confidence 4) [71B70AEE], AccurateRip returned [4E7B98F2]
Copy OK
Track 5
Filename C:\ista\Charlie Parker\Chasin' The Bird - Disc 3 (Bird In Flight)\05-Move.wav
Pre-gap length 0:00:02.39
Peak level 94.3 %
Track quality 100.0 %
Test CRC 16508718
Copy CRC 16508718
Cannot be verified as accurate (confidence 4) [A0159DFA], AccurateRip returned [21611377]
Copy OK
Track 6
Filename C:\ista\Charlie Parker\Chasin' The Bird - Disc 3 (Bird In Flight)\06-The Street Beat.wav
Peak level 94.3 %
Track quality 100.0 %
Test CRC 8DE48A5F
Copy CRC 8DE48A5F
Cannot be verified as accurate (confidence 4) [9D77846E], AccurateRip returned [41B06BFB]
Copy OK
Track 7
Filename C:\ista\Charlie Parker\Chasin' The Bird - Disc 3 (Bird In Flight)\07-Out Of Nowhere.wav
Pre-gap length 0:00:02.41
Peak level 90.0 %
Track quality 99.9 %
Test CRC 92FB0DE4
Copy CRC 92FB0DE4
Cannot be verified as accurate (confidence 4) [FCCBE374], AccurateRip returned [F2E09024]
Copy OK
Track 8
Filename C:\ista\Charlie Parker\Chasin' The Bird - Disc 3 (Bird In Flight)\08-Little Willie Leaps,52nd Street Theme.wav
Peak level 94.3 %
Track quality 100.0 %
Test CRC 69663090
Copy CRC 69663090
Cannot be verified as accurate (confidence 4) [1960926F], AccurateRip returned [DD1644B6]
Copy OK
Track 9
Filename C:\ista\Charlie Parker\Chasin' The Bird - Disc 3 (Bird In Flight)\09-Ornithology.wav
Peak level 76.1 %
Track quality 100.0 %
Test CRC DAC8F7CA
Copy CRC DAC8F7CA
Cannot be verified as accurate (confidence 4) [E9D31417], AccurateRip returned [C301AFB4]
Copy OK
Track 10
Filename C:\ista\Charlie Parker\Chasin' The Bird - Disc 3 (Bird In Flight)\10-I'll Remember April,52nd Street Theme.wav
Pre-gap length 0:00:02.41
Peak level 74.9 %
Track quality 100.0 %
Test CRC 609DA0F9
Copy CRC 609DA0F9
Cannot be verified as accurate (confidence 4) [D885CFBE], AccurateRip returned [30E9B920]
Copy OK
Track 11
Filename C:\ista\Charlie Parker\Chasin' The Bird - Disc 3 (Bird In Flight)\11-Cool Blues,52nd Street Theme.wav
Pre-gap length 0:00:02.41
Peak level 89.0 %
Track quality 100.0 %
Test CRC 500C79EA
Copy CRC 500C79EA
Cannot be verified as accurate (confidence 4) [B8BFF4EB], AccurateRip returned [6599B09D]
Copy OK
No tracks could be verified as accurate
You may have a different pressing from the one(s) in the database
No errors occurred
End of status report

Содержание индексной карты (.CUE)

REM GENRE Jazz
REM DATE 2005
REM DISCID AD12AE0B
REM COMMENT "ExactAudioCopy v0.99pb5"
PERFORMER "Charlie Parker"
TITLE "Chasin' The Bird - Disc 3 (Bird In Flight)"
FILE "01-Wahoo.wav" WAVE
TRACK 01 AUDIO
TITLE "Wahoo"
PERFORMER "Charlie Parker"
INDEX 01 00:00:00
FILE "02-'Round Midnight.wav" WAVE
TRACK 02 AUDIO
TITLE "'Round Midnight"
PERFORMER "Charlie Parker"
INDEX 01 00:00:00
FILE "03-This Time the Dream's On Me.wav" WAVE
TRACK 03 AUDIO
TITLE "This Time the Dream's On Me"
PERFORMER "Charlie Parker"
INDEX 01 00:00:00
FILE "04-Dizzy Atmosphere.wav" WAVE
TRACK 04 AUDIO
TITLE "Dizzy Atmosphere"
PERFORMER "Charlie Parker"
INDEX 01 00:00:00
TRACK 05 AUDIO
TITLE "Move"
PERFORMER "Charlie Parker"
INDEX 00 06:53:67
FILE "05-Move.wav" WAVE
INDEX 01 00:00:00
FILE "06-The Street Beat.wav" WAVE
TRACK 06 AUDIO
TITLE "The Street Beat"
PERFORMER "Charlie Parker"
INDEX 01 00:00:00
TRACK 07 AUDIO
TITLE "Out Of Nowhere"
PERFORMER "Charlie Parker"
INDEX 00 09:29:54
FILE "07-Out Of Nowhere.wav" WAVE
INDEX 01 00:00:00
FILE "08-Little Willie Leaps,52nd Street Theme.wav" WAVE
TRACK 08 AUDIO
TITLE "Little Willie Leaps/52nd Street Theme"
PERFORMER "Charlie Parker"
INDEX 01 00:00:00
FILE "09-Ornithology.wav" WAVE
TRACK 09 AUDIO
TITLE "Ornithology"
PERFORMER "Charlie Parker"
INDEX 01 00:00:00
TRACK 10 AUDIO
TITLE "I'll Remember April/52nd Street Theme"
PERFORMER "Charlie Parker"
INDEX 00 07:51:27
FILE "10-I'll Remember April,52nd Street Theme.wav" WAVE
INDEX 01 00:00:00
TRACK 11 AUDIO
TITLE "Cool Blues/52nd Street Theme"
PERFORMER "Charlie Parker"
INDEX 00 09:27:53
FILE "11-Cool Blues,52nd Street Theme.wav" WAVE
INDEX 01 00:00:00

Отчёт auCDtect Task manager

-----------------------
DON'T MODIFY THIS FILE
-----------------------
PERFORMER: auCDtect Task Manager, ver. 1.6.0 RC1 build 1.6.0.1
Copyright (c) 2008-2010 y-soft. All rights reserved
http://y-soft.org
ANALYZER: auCDtect: CD records authenticity detector, version 0.8.2
Copyright (c) 2004 Oleg Berngardt. All rights reserved.
Copyright (c) 2004 Alexander Djourik. All rights reserved.
FILE: 11-Cool Blues,52nd Street Theme.flac
Size: 20047133 Hash: 70E80DCFCA082F3DEE5D912B48929A5C Accuracy: -m0
Conclusion: CDDA 100%
Signature: 7F13CBE2896BF2B36A43C6455A523114B7F589F8
FILE: 10-I'll Remember April,52nd Street Theme.flac
Size: 21810969 Hash: A7D986C75F5139830A2F380504645668 Accuracy: -m0
Conclusion: CDDA 99%
Signature: C96263108330773711F44016C5E176AAD5666697
FILE: 09-Ornithology.flac
Size: 16944072 Hash: D63CA573C6AFE9839E5F41AA8B3CA954 Accuracy: -m0
Conclusion: CDDA 94%
Signature: F815A1628122F7221A71D186BE3BE84C615BC105
FILE: 08-Little Willie Leaps,52nd Street Theme.flac
Size: 12108455 Hash: 62D30CAD3972585B184ACB2767B5A742 Accuracy: -m0
Conclusion: CDDA 100%
Signature: 5C1E68C06F60026CE9AE4B5503E96812C4CB9F74
FILE: 07-Out Of Nowhere.flac
Size: 12938281 Hash: E282AAAD095822EA572F2D2C2E1D3B60 Accuracy: -m0
Conclusion: CDDA 100%
Signature: 5DBE7E8708485FB299B098C2A061F7E990AF1920
FILE: 06-The Street Beat.flac
Size: 19806625 Hash: B9AE15999D619B2AAA971386EA9F83E1 Accuracy: -m0
Conclusion: CDDA 94%
Signature: DB2E2F9C822E965D6CB1A20A0404B6C62A43F55C
FILE: 05-Move.flac
Size: 14161557 Hash: 71DD8CA7D9506E1168880EB11F0DE03A Accuracy: -m0
Conclusion: CDDA 85%
Signature: C6F76BA6FA73640A95FB4708D308A1735CB582F9
FILE: 04-Dizzy Atmosphere.flac
Size: 15332645 Hash: 32B7D51907C43523C0F90C0E49E86A43 Accuracy: -m0
Conclusion: CDDA 76%
Signature: 86DFE991529B997982F20AE8C215A0C7A920E3A9
FILE: 03-This Time the Dream's On Me.flac
Size: 13471657 Hash: 9C6E5B1AB50A79D282BB575DA70E5672 Accuracy: -m0
Conclusion: CDDA 86%
Signature: 977C4A6D157621485C12B2EB9443AF46CC27FBEE
FILE: 02-'Round Midnight.flac
Size: 9869983 Hash: 152E3E64B5FD35F87E58C0CC958E391E Accuracy: -m0
Conclusion: CDDA 100%
Signature: 1C6B935024AFAA33AD512BFC005524E9175A8D5C
FILE: 01-Wahoo.flac
Size: 14191052 Hash: 034CEA28D55EE82C5AB1B494BD1A8BAF Accuracy: -m0
Conclusion: CDDA 85%
Signature: 1DFF7A6691F036CF4C079797F3481EC3E87324B8

♦ CD4 - Birdland And Elsewhere

Трeклист:

01. Ornithology [04:39]
02. Cheryl [05:18]
03. Ko Ko [05:20]
04. Bird Of Paradise [06:28]
05. Now's The Time [05:39]
06. Blue 'N' Boogie [06:50]
07. Anthropology [05:01]
08. 'Round Midnight [03:13]
09. Night In Tunisia [04:52]
10. Hot House [03:32]
11. Laura [03:04]
12. This Time The Dream's On Me [06:10]
13. Cool Blues [03:21]
14. Lester Leaps In [03:49]
15. How High The Moon [05:27]
16. Embraceable You/52nd Street Theme [03:34]
17. East Of The Sun [03:31]
Продолжительность:
01:19:37

Лог создания рипа:

Exact Audio Copy V0.99 prebeta 5 from 4. May 2009
EAC extraction logfile from 9. June 2012, 20:11
Charlie Parker / Chasin' The Bird - Disc 4 (Birdland And Elsewhere)
Used drive : TSSTcorpCDDVDW TS-L633C Adapter: 2 ID: 0
Read mode : Secure
Utilize accurate stream : Yes
Defeat audio cache : Yes
Make use of C2 pointers : No
Read offset correction : 6
Overread into Lead-In and Lead-Out : No
Fill up missing offset samples with silence : Yes
Delete leading and trailing silent blocks : No
Null samples used in CRC calculations : Yes
Used interface : Installed external ASPI interface
Gap handling : Appended to previous track
Used output format : User Defined Encoder
Selected bitrate : 768 kBit/s
Quality : High
Add ID3 tag : No
Command line compressor : C:\Program Files\Exact Audio Copy\FLAC\FLAC.EXE
Additional command line options : -6 -V -T "ARTIST=%a" -T "TITLE=%t" -T "ALBUM=%g" -T "DATE=%y" -T "TRACKNUMBER=%n" -T "GENRE=%m" -T "COMMENT=%e" %s -o %d
TOC of the extracted CD
Track | Start | Length | Start sector | End sector
---------------------------------------------------------
1 | 0:00.00 | 4:38.13 | 0 | 20862
2 | 4:38.13 | 5:17.39 | 20863 | 44676
3 | 9:55.52 | 5:19.50 | 44677 | 68651
4 | 15:15.27 | 6:27.01 | 68652 | 97677
5 | 21:42.28 | 5:38.44 | 97678 | 123071
6 | 27:20.72 | 6:49.10 | 123072 | 153756
7 | 34:10.07 | 5:00.42 | 153757 | 176298
8 | 39:10.49 | 3:12.26 | 176299 | 190724
9 | 42:23.00 | 4:51.07 | 190725 | 212556
10 | 47:14.07 | 3:31.33 | 212557 | 228414
11 | 50:45.40 | 3:03.04 | 228415 | 242143
12 | 53:48.44 | 6:09.36 | 242144 | 269854
13 | 59:58.05 | 3:20.26 | 269855 | 284880
14 | 63:18.31 | 3:48.45 | 284881 | 302025
15 | 67:07.01 | 5:26.06 | 302026 | 326481
16 | 72:33.07 | 3:33.49 | 326482 | 342505
17 | 76:06.56 | 3:30.06 | 342506 | 358261
Track 1
Filename C:\ista\Charlie Parker\Chasin' The Bird - Disc 4 (Birdland And Elsewhere)\01-Ornithology.wav
Pre-gap length 0:00:02.00
Peak level 84.0 %
Track quality 100.0 %
Test CRC D3DE2911
Copy CRC D3DE2911
Cannot be verified as accurate (confidence 4) [CB008875], AccurateRip returned [BF313EB1]
Copy OK
Track 2
Filename C:\ista\Charlie Parker\Chasin' The Bird - Disc 4 (Birdland And Elsewhere)\02-Cheryl.wav
Pre-gap length 0:00:02.41
Peak level 94.3 %
Track quality 100.0 %
Test CRC C6C64320
Copy CRC C6C64320
Cannot be verified as accurate (confidence 4) [F45EFCE3], AccurateRip returned [78D48B35]
Copy OK
Track 3
Filename C:\ista\Charlie Parker\Chasin' The Bird - Disc 4 (Birdland And Elsewhere)\03-Ko Ko.wav
Pre-gap length 0:00:02.41
Peak level 90.3 %
Track quality 100.0 %
Test CRC 6F665E9E
Copy CRC 6F665E9E
Cannot be verified as accurate (confidence 4) [21D65782], AccurateRip returned [ABED954E]
Copy OK
Track 4
Filename C:\ista\Charlie Parker\Chasin' The Bird - Disc 4 (Birdland And Elsewhere)\04-Bird Of Paradise.wav
Pre-gap length 0:00:02.41
Peak level 90.5 %
Track quality 100.0 %
Test CRC 05265CA1
Copy CRC 05265CA1
Cannot be verified as accurate (confidence 4) [FCF48827], AccurateRip returned [4A946F67]
Copy OK
Track 5
Filename C:\ista\Charlie Parker\Chasin' The Bird - Disc 4 (Birdland And Elsewhere)\05-Now's The Time.wav
Pre-gap length 0:00:02.41
Peak level 94.3 %
Track quality 100.0 %
Test CRC 04F7CCBB
Copy CRC 04F7CCBB
Cannot be verified as accurate (confidence 4) [074E0B10], AccurateRip returned [70F74C30]
Copy OK
Track 6
Filename C:\ista\Charlie Parker\Chasin' The Bird - Disc 4 (Birdland And Elsewhere)\06-Blue 'N' Boogie.wav
Pre-gap length 0:00:02.41
Peak level 94.0 %
Track quality 100.0 %
Test CRC 7F3E5369
Copy CRC 7F3E5369
Cannot be verified as accurate (confidence 4) [3321E653], AccurateRip returned [0B712D21]
Copy OK
Track 7
Filename C:\ista\Charlie Parker\Chasin' The Bird - Disc 4 (Birdland And Elsewhere)\07-Anthropology.wav
Pre-gap length 0:00:02.41
Peak level 89.0 %
Track quality 100.0 %
Test CRC 8467C9AC
Copy CRC 8467C9AC
Cannot be verified as accurate (confidence 4) [5BB576E7], AccurateRip returned [B3A69DC3]
Copy OK
Track 8
Filename C:\ista\Charlie Parker\Chasin' The Bird - Disc 4 (Birdland And Elsewhere)\08-'Round Midnight.wav
Pre-gap length 0:00:02.41
Peak level 74.8 %
Track quality 100.0 %
Test CRC 26E355DA
Copy CRC 26E355DA
Cannot be verified as accurate (confidence 4) [72A60198], AccurateRip returned [5DD5BB86]
Copy OK
Track 9
Filename C:\ista\Charlie Parker\Chasin' The Bird - Disc 4 (Birdland And Elsewhere)\09-Night In Tunisia.wav
Pre-gap length 0:00:02.41
Peak level 84.0 %
Track quality 100.0 %
Test CRC F415C7B3
Copy CRC F415C7B3
Cannot be verified as accurate (confidence 4) [356D1E04], AccurateRip returned [2A74420E]
Copy OK
Track 10
Filename C:\ista\Charlie Parker\Chasin' The Bird - Disc 4 (Birdland And Elsewhere)\10-Hot House.wav
Pre-gap length 0:00:02.41
Peak level 84.0 %
Track quality 100.0 %
Test CRC A4334801
Copy CRC A4334801
Cannot be verified as accurate (confidence 4) [9B448A08], AccurateRip returned [A4006324]
Copy OK
Track 11
Filename C:\ista\Charlie Parker\Chasin' The Bird - Disc 4 (Birdland And Elsewhere)\11-Laura.wav
Pre-gap length 0:00:02.41
Peak level 84.0 %
Track quality 100.0 %
Test CRC B1FCA4DE
Copy CRC B1FCA4DE
Cannot be verified as accurate (confidence 4) [B643C971], AccurateRip returned [2F3255B3]
Copy OK
Track 12
Filename C:\ista\Charlie Parker\Chasin' The Bird - Disc 4 (Birdland And Elsewhere)\12-This Time The Dream's On Me.wav
Pre-gap length 0:00:02.41
Peak level 94.2 %
Track quality 100.0 %
Test CRC A398797D
Copy CRC A398797D
Cannot be verified as accurate (confidence 4) [7D253FFD], AccurateRip returned [AA2157C5]
Copy OK
Track 13
Filename C:\ista\Charlie Parker\Chasin' The Bird - Disc 4 (Birdland And Elsewhere)\13-Cool Blues.wav
Pre-gap length 0:00:02.41
Peak level 89.0 %
Track quality 100.0 %
Test CRC B684C37A
Copy CRC B684C37A
Cannot be verified as accurate (confidence 4) [95B19117], AccurateRip returned [719264A7]
Copy OK
Track 14
Filename C:\ista\Charlie Parker\Chasin' The Bird - Disc 4 (Birdland And Elsewhere)\14-Lester Leaps In.wav
Pre-gap length 0:00:02.41
Peak level 85.2 %
Track quality 100.0 %
Test CRC 3E71ACD7
Copy CRC 3E71ACD7
Cannot be verified as accurate (confidence 4) [16256F27], AccurateRip returned [B8C2D3F3]
Copy OK
Track 15
Filename C:\ista\Charlie Parker\Chasin' The Bird - Disc 4 (Birdland And Elsewhere)\15-How High The Moon.wav
Pre-gap length 0:00:02.41
Peak level 78.0 %
Track quality 99.9 %
Test CRC EB1BC8F3
Copy CRC EB1BC8F3
Cannot be verified as accurate (confidence 4) [9AE184A0], AccurateRip returned [92E5F147]
Copy OK
Track 16
Filename C:\ista\Charlie Parker\Chasin' The Bird - Disc 4 (Birdland And Elsewhere)\16-Embraceable You,52nd Street Theme.wav
Peak level 79.1 %
Track quality 100.0 %
Test CRC BE51E818
Copy CRC BE51E818
Cannot be verified as accurate (confidence 4) [F07D1F4F], AccurateRip returned [477B4C08]
Copy OK
Track 17
Filename C:\ista\Charlie Parker\Chasin' The Bird - Disc 4 (Birdland And Elsewhere)\17-East Of The Sun.wav
Pre-gap length 0:00:02.41
Peak level 84.0 %
Track quality 100.0 %
Test CRC 70AF8CC6
Copy CRC 70AF8CC6
Cannot be verified as accurate (confidence 4) [7BE8782D], AccurateRip returned [46A1B503]
Copy OK
No tracks could be verified as accurate
You may have a different pressing from the one(s) in the database
No errors occurred
End of status report

Содержание индексной карты (.CUE)

REM GENRE Jazz
REM DATE 2005
REM DISCID E012A811
REM COMMENT "ExactAudioCopy v0.99pb5"
PERFORMER "Charlie Parker"
TITLE "Chasin' The Bird - Disc 4 (Birdland And Elsewhere)"
FILE "01-Ornithology.wav" WAVE
TRACK 01 AUDIO
TITLE "Ornithology"
PERFORMER "Charlie Parker"
INDEX 01 00:00:00
TRACK 02 AUDIO
TITLE "Cheryl"
PERFORMER "Charlie Parker"
INDEX 00 04:35:47
FILE "02-Cheryl.wav" WAVE
INDEX 01 00:00:00
TRACK 03 AUDIO
TITLE "Ko Ko"
PERFORMER "Charlie Parker"
INDEX 00 05:14:73
FILE "03-Ko Ko.wav" WAVE
INDEX 01 00:00:00
TRACK 04 AUDIO
TITLE "Bird Of Paradise"
PERFORMER "Charlie Parker"
INDEX 00 05:17:09
FILE "04-Bird Of Paradise.wav" WAVE
INDEX 01 00:00:00
TRACK 05 AUDIO
TITLE "Now's The Time"
PERFORMER "Charlie Parker"
INDEX 00 06:24:35
FILE "05-Now's The Time.wav" WAVE
INDEX 01 00:00:00
TRACK 06 AUDIO
TITLE "Blue 'N' Boogie"
PERFORMER "Charlie Parker"
INDEX 00 05:36:03
FILE "06-Blue 'N' Boogie.wav" WAVE
INDEX 01 00:00:00
TRACK 07 AUDIO
TITLE "Anthropology"
PERFORMER "Charlie Parker"
INDEX 00 06:46:44
FILE "07-Anthropology.wav" WAVE
INDEX 01 00:00:00
TRACK 08 AUDIO
TITLE "'Round Midnight"
PERFORMER "Charlie Parker"
INDEX 00 04:58:01
FILE "08-'Round Midnight.wav" WAVE
INDEX 01 00:00:00
TRACK 09 AUDIO
TITLE "Night In Tunisia"
PERFORMER "Charlie Parker"
INDEX 00 03:09:60
FILE "09-Night In Tunisia.wav" WAVE
INDEX 01 00:00:00
TRACK 10 AUDIO
TITLE "Hot House"
PERFORMER "Charlie Parker"
INDEX 00 04:48:41
FILE "10-Hot House.wav" WAVE
INDEX 01 00:00:00
TRACK 11 AUDIO
TITLE "Laura"
PERFORMER "Charlie Parker"
INDEX 00 03:28:67
FILE "11-Laura.wav" WAVE
INDEX 01 00:00:00
TRACK 12 AUDIO
TITLE "This Time The Dream's On Me"
PERFORMER "Charlie Parker"
INDEX 00 03:00:38
FILE "12-This Time The Dream's On Me.wav" WAVE
INDEX 01 00:00:00
TRACK 13 AUDIO
TITLE "Cool Blues"
PERFORMER "Charlie Parker"
INDEX 00 06:06:70
FILE "13-Cool Blues.wav" WAVE
INDEX 01 00:00:00
TRACK 14 AUDIO
TITLE "Lester Leaps In"
PERFORMER "Charlie Parker"
INDEX 00 03:17:60
FILE "14-Lester Leaps In.wav" WAVE
INDEX 01 00:00:00
TRACK 15 AUDIO
TITLE "How High The Moon"
PERFORMER "Charlie Parker"
INDEX 00 03:46:04
FILE "15-How High The Moon.wav" WAVE
INDEX 01 00:00:00
FILE "16-Embraceable You,52nd Street Theme.wav" WAVE
TRACK 16 AUDIO
TITLE "Embraceable You/52nd Street Theme"
PERFORMER "Charlie Parker"
INDEX 01 00:00:00
TRACK 17 AUDIO
TITLE "East Of The Sun"
PERFORMER "Charlie Parker"
INDEX 00 03:31:08
FILE "17-East Of The Sun.wav" WAVE
INDEX 01 00:00:00

Отчёт auCDtect Task manager

-----------------------
DON'T MODIFY THIS FILE
-----------------------
PERFORMER: auCDtect Task Manager, ver. 1.6.0 RC1 build 1.6.0.1
Copyright (c) 2008-2010 y-soft. All rights reserved
http://y-soft.org
ANALYZER: auCDtect: CD records authenticity detector, version 0.8.2
Copyright (c) 2004 Oleg Berngardt. All rights reserved.
Copyright (c) 2004 Alexander Djourik. All rights reserved.
FILE: 17-East Of The Sun.flac
Size: 8385776 Hash: 1C878F4B11221640FB3E09C3606D8C59 Accuracy: -m0
Conclusion: CDDA 43%
Signature: 4A9E6D3C55C6BD05D455A7D3B72917E5CAD1F399
FILE: 16-Embraceable You,52nd Street Theme.flac
Size: 8058067 Hash: F5B43FFE10CC54D79838101C60BCF5BC Accuracy: -m0
Conclusion: CDDA 54%
Signature: 9D77456BA170B8252C78E98E047995055BCDBF53
FILE: 15-How High The Moon.flac
Size: 12492619 Hash: CD73EF7219F946769FFB2C230E4A7795 Accuracy: -m0
Conclusion: CDDA 54%
Signature: 2EA36326F82BE8B1CBF2886B8136A0122DDB9473
FILE: 14-Lester Leaps In.flac
Size: 9517468 Hash: 7278FE72643076008D96CEAE10A60D50 Accuracy: -m0
Conclusion: CDDA 43%
Signature: 97E333C57613DA216BF1F9981DE79582EF4A8041
FILE: 13-Cool Blues.flac
Size: 7774136 Hash: 5C91828FF42B21B340A209B5D43B04AA Accuracy: -m0
Conclusion: MPEG 100%
Signature: 9CE50DC78C78451E3122AA4696F3175F7CE9F5A7
FILE: 12-This Time The Dream's On Me.flac
Size: 14712454 Hash: 1973D1C8EFA3567515AF5CE401C6DFA7 Accuracy: -m0
Conclusion: MPEG 89%
Signature: 958FC6606AEC6D27FFDD7347E74A62B101012EFB
FILE: 11-Laura.flac
Size: 7278249 Hash: 697696CA3A368BACF61EAF5DF469E9C2 Accuracy: -m0
Conclusion: CDDA 49%
Signature: 5A472DFEA6CF415A900DE8CF6CE451F600462CDB
FILE: 10-Hot House.flac
Size: 7985204 Hash: 0F9773EE0CE8CA610C0DD1C8686E045C Accuracy: -m0
Conclusion: CDDA 43%
Signature: 2854D46E9DD022A3CB27589E53F30FDADF7AEF55
FILE: 09-Night In Tunisia.flac
Size: 11116914 Hash: 7897812A8B1E0318311704CD692E328C Accuracy: -m0
Conclusion: CDDA 43%
Signature: 4BC84D208449265F8A07E3D8AC8B638E09129A2F
FILE: 08-'Round Midnight.flac
Size: 7418051 Hash: F008443C78B022E062065F85394272EA Accuracy: -m0
Conclusion: CDDA 62%
Signature: 000B23C8487CEB4D595EC7EE78A9D94ED04EE9A8
FILE: 07-Anthropology.flac
Size: 11888471 Hash: BAC347A386241595AB25FF2B449A772F Accuracy: -m0
Conclusion: CDDA 43%
Signature: 29DF58C43DB618768B30074AD4993169B26B56B8
FILE: 06-Blue 'N' Boogie.flac
Size: 14919449 Hash: 772797DFDD0DB9C49AB2E978026C24AB Accuracy: -m0
Conclusion: MPEG 89%
Signature: 1D43D1B7A4897673CC33AD9FD11036F8F156C525
FILE: 05-Now's The Time.flac
Size: 12396321 Hash: DE3D777A3FA4BE9F4DA5C2171FADFC68 Accuracy: -m0
Conclusion: CDDA 100%
Signature: 495DF11F720F8C57B06200489D3475CBC1E48C50
FILE: 04-Bird Of Paradise.flac
Size: 14246941 Hash: 7A24D4175FDE63DD696C1C200854BFD7 Accuracy: -m0
Conclusion: CDDA 100%
Signature: 3F284AE029E91750933D4A036EDCA81B392A045F
FILE: 03-Ko Ko.flac
Size: 12805643 Hash: CF62A7545920407663CF5FD1671C7611 Accuracy: -m0
Conclusion: CDDA 100%
Signature: B5A620105243F677FEA742DEE0BE1027CBA000DD
FILE: 02-Cheryl.flac
Size: 12716279 Hash: A594C623FC518540A738D8DBE3A72C3F Accuracy: -m0
Conclusion: CDDA 100%
Signature: DEF46A9336A0D4B7C03691883E31A0A9A98C5274
FILE: 01-Ornithology.flac
Size: 10589287 Hash: 14228215C113B6F16D31DDF3F6ADD678 Accuracy: -m0
Conclusion: CDDA 100%
Signature: 9747DBB45A00468327860DE1558AEB75AA942757

Спектрограмма:

[Цитировать]



Показать сообщения:    

Текущее время: 16-Авг 01:36

Часовой пояс: UTC + 6


Вы не можете начинать темы
Вы не можете отвечать на сообщения
Вы не можете редактировать свои сообщения
Вы не можете удалять свои сообщения
Вы не можете голосовать в опросах
Вы не можете прикреплять файлы к сообщениям
Вы не можете скачивать файлы

!ВНИМАНИЕ!
Сайт не предоставляет электронные версии произведений, а занимается лишь коллекционированием и каталогизацией ссылок, присылаемых и публикуемых на форуме нашими читателями. Если вы являетесь правообладателем какого-либо представленного материала и не желаете, чтобы ссылка на него находилась в нашем каталоге, свяжитесь с нами, и мы незамедлительно удалим ее. Файлы для обмена на трекере предоставлены пользователями сайта, и администрация не несет ответственности за их содержание. Просьба не заливать файлы, защищенные авторскими правами, а также файлы нелегального содержания!